#TITLE:Honey;
#SUBTITLE:;
#ARTIST:Kara;
#TITLETRANSLIT:Honey;
#SUBTITLETRANSLIT:;
#ARTISTTRANSLIT:Kara;
#CREDIT:Thu Nam , 2-4-2009;
#BANNER:Honey-bn.png;
#BACKGROUND:Honey-bg.png;
#LYRICSPATH:;
#CDTITLE:pm4cd.png;
#MUSIC:Honey.mp3;
#OFFSET:0.340;
#SAMPLESTART:54.780;
#SAMPLELENGTH:20.000;
#SELECTABLE:YES;
#BPMS:0.000=140.000;
#STOPS:;
#BGCHANGES:;
// cache tags:
#FIRSTBEAT:4.000;
#LASTBEAT:447.000;
#SONGFILENAME:Songs/Lon`/Honey/Honey.sm;
#HASMUSIC:1;
#HASBANNER:1;
#MUSICLENGTH:194.639;
// end cache tags

//---------------dance-single - ----------------
#NOTES:
     dance-single:
     :
     Hard:
     15:
     1.000,1.000,1.000,0.529,0.552,1024.000,450.000,103.000,0.000,124.000:
0000
0000
0000
0000
,
0021
0000
0031
0000
0200
0000
1300
0200
,
0312
0000
0013
0000
1000
0100
0010
0001
,
2010
0000
3010
0000
0102
0000
0103
0020
,
2031
0000
3001
0000
0001
0010
0100
1000
,
0102
0000
0103
0000
1200
0000
1300
0002
,
0213
0000
0310
0000
1000
0100
0010
0001
,
2100
0000
3100
0000
0022
0000
0000
2033
,
3001
0000
0010
0000
0100
0000
1000
0000
0101
1010
0101
1010
0101
0000
0000
0000
,
1111
0110
0110
0110
0110
0110
0001
1100
,
0011
0011
0011
0011
2000
0010
3002
0100
,
1113
1100
1100
1100
1100
1100
0001
1010
,
0101
0101
0101
0101
0002
0100
2003
0010
,
3111
0011
0011
0011
0011
0011
1000
0101
,
1010
1010
1010
1010
0002
1000
0023
0100
,
1131
1001
1001
1001
1001
1001
0010
1100
,
0011
1000
0011
0100
0011
1000
0011
0100
0010
0100
1000
0100
0011
0000
0000
0000
,
1011
0001
1100
0010
0001
1000
0110
0001
,
1000
0010
1001
0001
0010
0100
1010
0100
,
0001
1000
0101
1000
0010
0100
1001
0010
,
0100
0000
0010
0000
1010
0000
0100
0000
0010
0001
1000
0001
1000
0001
1000
0100
,
1001
1000
0101
0010
1000
0010
0110
1000
,
0001
0100
0101
0010
0100
1000
0011
0010
,
1000
0100
0101
1000
0010
0001
1100
0001
,
0010
0000
0100
0000
1001
0000
0010
0000
0100
0001
1000
0010
0001
0100
0010
1000
,
1101
0010
1001
0010
0001
0100
0011
1000
,
0100
0001
1010
0100
0001
0010
1100
0010
,
0100
0010
1001
0010
0001
0100
1100
0010
,
0100
0000
1000
0000
1010
0000
0100
0000
0001
1000
0001
0100
0001
1000
0010
1000
,
0001
0100
0011
1000
0100
0010
1001
0010
,
0002
0000
1013
0100
0001
0010
0101
1000
,
0020
0001
1100
0001
1030
0000
0011
0100
,
1110
0001
0111
0010
1101
0100
1011
0000
,
0011
1000
0010
0100
1001
0000
0010
0000
1001
0100
0010
0001
1010
0000
0001
0000
,
1100
0010
1000
0100
0101
0000
0000
0000
1001
0000
0010
0000
0101
0000
1000
0000
,
0011
0100
0001
0100
1010
0000
0001
0000
1100
0001
0100
1000
0101
0000
0010
0000
,
1010
0100
0001
1000
1001
0000
0000
0000
1100
0000
0100
0000
0101
0000
0010
0000
,
0011
1000
0100
0010
1001
0000
0010
0000
1100
0001
0010
0100
0011
0000
1000
0000
,
0102
1000
0010
0100
1010
0000
0000
0000
1103
0000
0100
0000
0110
0000
0010
0000
,
2001
0100
0011
0010
3102
0010
1100
0010
,
1013
0000
0100
0000
1001
0000
0100
0000
1010
0000
0100
0000
1001
0000
0010
0000
0101
0000
0010
0000
1001
0000
0010
0000
0101
0000
0010
0000
1001
0100
0010
1000
,
0101
0010
1000
0001
0110
0000
0001
0000
1010
0100
0001
0010
1100
0000
0001
0000
,
0110
1000
0010
0001
0101
0000
0000
0000
0110
0000
0010
0000
1010
0000
0100
0000
,
0101
1000
0100
1000
0011
0000
0010
0000
1010
0100
0010
0001
1100
0000
0001
0000
,
1001
0010
0001
0100
0101
0000
0000
0000
1010
0000
0010
0000
0101
0000
1000
0000
,
0011
1000
0010
0100
1001
0000
0010
0000
1100
0001
0100
0010
0101
0000
0001
0000
,
2100
0001
0100
0001
0110
0000
0000
0000
3011
0000
0100
0000
1010
0000
0010
0000
,
0120
1000
0101
0100
1032
0010
1100
0100
,
2223
3330
2202
3303
0222
0333
2022
3033
,
2111
0101
0101
0101
0101
0101
0010
0011
,
0110
0110
0110
0110
0002
0010
0023
0100
,
3132
1100
1100
1100
1100
1100
0010
0110
,
1010
1010
1010
1010
0020
1000
2030
0010
,
3213
0011
0011
0011
0011
0011
0010
1001
,
1010
1010
1010
1010
0002
1000
0023
1000
,
1331
0000
0100
0000
0011
0000
1000
0100
1000
0100
0010
0001
0010
0100
1000
0100
,
1011
0100
1000
0010
0100
0010
0100
0010
0001
0010
0001
0010
2100
0000
0000
0000
,
3010
0001
1100
0001
0100
0001
0110
0001
,
1000
0010
1001
0100
0001
0010
1100
0010
,
0001
0100
1010
0100
1000
0010
0011
0100
,
0001
1000
0110
0100
0010
0100
1001
0100
,
1010
0010
0101
0010
1000
0100
0011
0100
,
0002
1000
1103
0010
0001
0100
1001
0010
,
0200
0001
1010
0001
0310
1000
0011
0100
,
1100
0000
0000
0000
0000
0000
0000
0000
0000
0000
0000
0000
0000
0000
0000
0000
0000
0000
0000
0000
0000
0000
0000
0000
1000
0000
0000
0000
0000
0000
0000
0000
0100
0000
0000
0000
0000
0000
0000
0000
0010
0000
0000
0000
0000
0000
0000
0000
0101
0000
0000
0000
0000
0000
0000
0000
0010
0000
0000
0000
0000
0000
0000
0000
0001
0000
0000
0000
0000
0000
0000
0000
1100
0000
0000
0000
0000
0000
0000
0000
0001
0000
0000
0000
0000
0000
0000
0000
0010
0000
0000
0000
0000
0000
0000
0000
0101
0000
0000
0000
0000
0000
0000
0000
0010
0000
0000
0000
0000
0000
0000
0000
0001
0000
0000
0000
0000
0000
0000
0000
1100
0000
0000
0000
0000
0000
0000
0000
0001
0000
0000
0000
0000
0000
0000
0000
1000
0000
0000
0000
0000
0000
0000
0000
0101
0000
0000
0000
0000
0000
0000
0000
1000
0000
0000
0000
0000
0000
0000
0000
0001
0000
0000
0000
0000
0000
0000
0000
1100
0000
0000
0000
0000
0000
0010
0000
0000
0000
0000
0000
1000
0000
0000
0000
0000
0000
0100
0000
0000
0000
0000
0000
,
1002
0100
1000
0010
1103
0000
0001
0000
0021
0100
0001
1000
0131
0000
0100
0000
,
2001
0100
0010
0001
3110
0000
0000
0000
0011
0000
0010
0000
1010
0000
0100
0000
,
0021
1000
0100
1000
0131
0000
0100
0000
2001
0100
0010
0001
3101
0000
0010
0000
,
0120
1000
0100
0001
1130
0000
0000
0000
1001
0000
0010
0000
0101
0000
0010
0000
,
1200
0001
0010
0001
1310
0000
0001
0000
0012
0100
1000
0010
1103
0000
0010
0000
,
0201
1000
0001
0010
1301
0000
0000
0000
0101
0000
0100
0000
0011
0000
0010
0000
,
1002
0010
1010
0100
1023
0100
1001
0001
,
1130
0000
0010
0000
1001
0000
0010
0000
1100
0000
0010
0000
1001
0000
0010
0000
1100
0000
0010
0000
1001
0000
0010
0000
1100
0000
0010
0000
1001
0100
0010
0001
,
2010
0100
0010
0001
3110
0000
0001
0000
0012
1000
0100
0010
1013
0000
0100
0000
,
0210
0001
0010
1000
1301
0000
0000
0000
1010
0000
0010
0000
1100
0000
0100
0000
,
0021
0100
1000
0001
1130
0000
0100
0000
0102
1000
0010
1000
0113
0000
1000
0000
,
2001
0100
0010
0001
3101
0000
0000
0000
0011
0000
0010
0000
1010
0000
1000
0000
,
0210
1000
0001
0010
1310
0000
0100
0000
2001
0100
0001
0010
3101
0000
0010
0000
,
0012
0100
1000
0010
1103
0000
0000
0000
1010
0000
0100
0000
0011
0000
1000
0000
,
0120
1000
0101
0001
1230
0010
1001
1000
,
1311
0000
0100
0000
0010
0000
0001
0000
0010
0000
0100
0000
1000
0000
0100
0000
0010
0000
0001
0000
0010
0100
1000
0100
0010
0001
0010
0100
0010
0100
1000
0100
,
1011
0001
1001
0001
1011
0001
1001
0001
1011
0001
1001
0001
1011
0001
1001
0001
,
1011
0000
0100
0000
1001
0000
0010
0000
0101
0000
1000
0000
0011
0000
1000
1000
,
0101
0010
1001
0100
1010
0100
0011
0100
,
1011
0000
0100
0000
1010
0000
0001
0000
0101
0000
1000
0000
0110
0000
0100
0100
,
0011
1000
0101
0010
1001
0100
1010
0010
,
1101
0000
0001
0000
0110
0000
0001
0000
1010
0000
0100
0000
1001
0000
0010
0010
,
1100
0001
0110
0100
1001
0010
0101
1000
,
1110
0001
1010
0010
1100
0100
0110
0001
,
0101
1010
0101
1010
0101
1010
0101
1010
0101
1010
0101
1010
0101
1010
0101
1010
,
0101
1000
0011
0100
1001
0000
0110
0000
1100
0001
1010
0100
0011
0000
0101
0000
,
0110
1000
0101
0010
1001
0000
0000
0000
0110
0000
1010
0000
0101
0000
0011
0000
,
0101
0010
1001
0010
1100
0000
0011
0000
1001
0010
1100
0001
1010
0000
1100
0000
,
0101
1000
0110
0001
1010
0000
0000
0000
1100
0000
0110
0000
0011
0000
0101
0000
,
1001
0010
0101
1000
0011
0000
0110
0000
1001
0100
1010
0001
0110
0000
0101
0000
,
1100
0001
0110
1000
0011
0000
0000
0000
0110
0000
1001
0000
1010
0000
0110
0000
,
1002
0100
1010
0010
2103
0001
0101
0010
,
3011
0100
1010
0100
0011
0100
1010
0100
0011
0100
1010
0100
0011
0100
1010
0100
,
1001
0100
0101
0010
1100
0000
1001
0000
0110
0010
1100
0001
0101
0000
0110
0000
,
1100
0100
1010
0010
1001
0000
0000
0000
0011
0000
1100
0000
0101
0000
0011
0000
,
1100
0100
0101
0010
1001
0000
0110
0000
1010
1000
0101
0001
1100
0000
1001
0000
,
0011
1000
0110
1000
1001
0000
0000
0000
0101
0000
1010
0000
0011
0000
1100
0000
,
0110
0010
1100
0001
0101
0000
1001
0000
1010
0010
1100
0001
0110
0000
1001
0000
,
1010
0100
0101
0010
0011
0000
0000
0000
1100
0000
0101
0000
0011
0000
1010
0000
,
1002
0100
1010
0010
0213
1000
1001
0010
,
2322
3033
2202
3303
2220
3330
0222
0333
,
2000
0000
3001
0000
0020
0000
0130
1000
,
0002
0000
1003
0000
0020
0000
0130
1000
,
0020
0000
0031
0000
2000
0000
3100
0001
,
0020
0130
2000
3112
,
0220
0000
0000
0000
,
0000
0000
0000
0333
;
